• The Hangover Part II Imdb

  • Comments on this subtitle (1)

    • 11/14/2011 2:05 AM

      Works very well on The Hangover 2 (2011) DVDRip XviD-MAXSPEED www.torentz.3xforum.ro.avi
      General
      Complete name                    : The Hangover 2 (2011) DVDRip XviD-MAXSPEED\The Hangover 2 (2011) DVDRip XviD-MAXSPEED www.torentz.3xforum.ro.avi
      Format                           : AVI
      Format/Info                      : Audio Video Interleave
      Format profile                   : OpenDML
      Format settings                  : rec
      File size                        : 1.47 GiB
      Duration                         : 1h 37mn
      Overall bit rate                 : 2 151 Kbps
      Writing application              : AVI-Mux GUI 1.17.8.3, Feb 16 201019:42:50
      Video
      ID                               : 0
      Format                           : MPEG-4 Visual
      Format profile                   : Advanced Simple@L5
      Format settings, BVOP            : 1
      Format settings, QPel            : No
      Format settings, GMC             : No warppoints
      Format settings, Matrix          : Custom
      Codec ID                         : XVID
      Codec ID/Hint                    : XviD
      Duration                         : 1h 37mn
      Bit rate                         : 1 950 Kbps
      Width                            : 672 pixels
      Height                           : 288 pixels
      Display aspect ratio             : 2.35:1
      Frame rate                       : 29.970 fps
      Color space                      : YUV
      Chroma subsampling               : 4:2:0
      Bit depth                        : 8 bits
      Scan type                        : Progressive
      Compression mode                 : Lossy
      Bits/(Pixel*Frame)               : 0.336
      Stream size                      : 1.33 GiB (91%)
      Writing library                  : XviD 1.2.1 (UTC 2008-12-04)
      Audio
      ID                               : 1
      Format                           : MPEG Audio
      Format version                   : Version 1
      Format profile                   : Layer 3
      Mode                             : Joint stereo
      Codec ID                         : 55
      Codec ID/Hint                    : MP3
      Duration                         : 1h 37mn
      Bit rate mode                    : Constant
      Bit rate                         : 192 Kbps
      Channel(s)                       : 2 channels
      Sampling rate                    : 48.0 KHz
      Compression mode                 : Lossy
      Stream size                      : 134 MiB (9%)
      Alignment                        : Aligned on interleaves
      Interleave, duration             : 24 ms (0.72 video frame)
      Interleave, preload duration     : 192 ms
      Title                            : The.Hangover.Part.II.2011.DVDRip


    • 8/2/2012 2:07 PM
      pie

      works perfect :)